Avengers.Infinity.War.3D.201... | - Red.Dog.Mein.treuer.Freund.2016.G... | Il giovane Karl Marx
extratorrent - A Fan Made Alternative Login   |   Register
Important Information
Registrations are open now
-------------------------------------

Please click here to register with Extratorrent2 to recieve latest updates, add bookmarks and to post comments.

Friends
Friends

1) ProxyFix

Extratorrent2 > Categories > TV > House MD Season 4 1080p DTS 5.1 x265 HEVC BDRIP Mkv torrent


Browse TV torrents

House MD Season 4 1080p DTS 5.1 x265 HEVC BDRIP Mkv torrent


Download torrent: Download House MD Season 4 1080p DTS 5.1 x265 HEVC BDRIP Mkv torrent Magnet link Bookmark Torrent: House MD Season 4 1080p DTS 5.1 x265 HEVC BDRIP Mkv   House MD Season 4 1080p DTS 5.1 x265 HEVC BDRIP Mkv torrent
Info hash: 88F0DC7115ECB56EB828C2A103E15D8CEE59C0EA
Category: Categories > TV
Trackers:
View all torrent trackers >
Health:
 seeds: 1 ,  leechers: 1 |  Update >
Torrent language: English English
Total Size: 20.9 GB
Files List:
16    View torrent files >
Uploader:
Chios
Torrent added: May 25, 2016, 12:14 am
Users rating: ---, not rated. please login to rate.

Download House MD Season 4 1080p DTS 5.1 x265 HEVC BDRIP Mkv torrent



Torrent Description

General
Unique ID : 106897206817252194117194415184728819930 (0x506BA7355E065B17521E2D1732A808DA)
Complete name : /Volumes/LaCie Rugged Thunderbolt/House M.D/S04/S04E01 Alone.mkv
Format : Matroska
Format version : Version 4 / Version 2
File size : 1.01 GiB
Duration : 43mn 41s
Overall bit rate : 3 311 Kbps
Encoded date : UTC 2016-04-01 17:53:21 / UTC 2016-04-01T09:51:32Z
Writing application : mkvmerge v9.0.1 ('Obstacles') 64bit
Writing library : libebml v1.3.3 + libmatroska v1.4.4 / Lavf55.12.0

Video
ID : 1
Format : HEVC
Format/Info : High Efficiency Video Coding
Format profile : @Main
Codec ID : V_MPEGH/ISO/HEVC
Duration : 43mn 41s
Bit rate : 2 478 Kbps
Width : 1 920 pixels
Height : 1 080 pixels
Display aspect ratio : 16:9
Frame rate mode : Constant
Frame rate : 23.976 (24000/1001) fps
Color space : YUV
Chroma subsampling : 4:2:0
Bit depth : 8 bits
Bits/(Pixel*Frame) : 0.050
Stream size : 774 MiB (75%)
Writing library : x265 1.9:[Mac OS X][clang 7.0.0][64 bit] 8bit
Encoding settings : wpp / ctu=64 / min-cu-size=8 / max-tu-size=32 / tu-intra-depth=1 / tu-inter-depth=1 / me=1 / subme=2 / merange=57 / no-rect / no-amp / max-merge=2 / temporal-mvp / no-early-skip / rdpenalty=0 / no-tskip / no-tskip-fast / strong-intra-smoothing / no-lossless / no-cu-lossless / no-constrained-intra / no-fast-intra / open-gop / no-temporal-layers / interlace=0 / keyint=240 / min-keyint=24 / scenecut=40 / rc-lookahead=20 / lookahead-slices=6 / bframes=4 / bframe-bias=0 / b-adapt=2 / ref=3 / limit-refs=3 / no-limit-modes / weightp / no-weightb / aq-mode=1 / qg-size=32 / aq-strength=1.00 / cbqpoffs=0 / crqpoffs=0 / rd=3 / psy-rd=2.00 / rdoq-level=0 / psy-rdoq=0.00 / signhide / deblock / sao / no-sao-non-deblock / b-pyramid / cutree / no-intra-refresh / rc=crf / crf=20.0 / qcomp=0.60 / qpmin=0 / qpmax=51 / qpstep=4 / ipratio=1.40 / pbratio=1.30
Default : Yes
Forced : No
Color range : Limited
Color primaries : BT.709
Transfer characteristics : BT.709
Matrix coefficients : BT.709
Statistics Tags Issue : mkvmerge v9.0.1 ('Obstacles') 64bit 2016-04-01 17:53:21 / mkvmerge v9.0.1 ('Obstacles') 64bit 2016-04-01 17:53:21 / UTC 2016-04-01T09:51:32Z
FromStats_BitRate : 2541133
FromStats_Duration : 00:43:41.411000000
FromStats_FrameCount : 62851
FromStats_StreamSize : 832669357

Audio
ID : 2
Format : DTS
Format/Info : Digital Theater Systems
Mode : 16
Format settings, Endianness : Big
Codec ID : A_DTS
Duration : 43mn 41s
Bit rate mode : Constant
Bit rate : 768 Kbps
Channel(s) : 6 channels
Channel positions : Front: L C R, Side: L R, LFE
Sampling rate : 48.0 KHz
Frame rate : 93.750 fps (512 spf)
Bit depth : 24 bits
Compression mode : Lossy
Delay relative to video : -83ms
Stream size : 240 MiB (23%)
Language : English
Default : Yes
Forced : No
Statistics Tags Issue : mkvmerge v9.0.1 ('Obstacles') 64bit 2016-04-01 17:53:21 / mkvmerge v9.0.1 ('Obstacles') 64bit 2016-04-01 17:53:21 / UTC 2016-04-01T09:51:32Z
FromStats_BitRate : 767999
FromStats_Duration : 00:43:41.462000000
FromStats_FrameCount : 245762
FromStats_StreamSize : 251660288

Text
ID : 3
Format : UTF-8
Codec ID : S_TEXT/UTF8
Codec ID/Info : UTF-8 Plain Text
Language : English
Default : No
Forced : No
Statistics Tags Issue : mkvmerge v9.0.1 ('Obstacles') 64bit 2016-04-01 17:53:21 / mkvmerge v9.0.1 ('Obstacles') 64bit 2016-04-01 17:53:21 / UTC 2016-04-01T09:51:32Z
FromStats_BitRate : 83
FromStats_Duration : 00:42:55.114000000
FromStats_FrameCount : 754
FromStats_StreamSize : 26873

Menu
00:00:00.000 : :00:00:00.000
00:02:24.310 : :00:02:24.227
00:12:08.394 : :00:12:08.311
00:20:52.834 : :00:20:52.626
00:28:45.890 : :00:28:45.807
00:42:59.410 : :00:42:59.285


Download House MD Season 4 1080p DTS 5.1 x265 HEVC BDRIP Mkv torrent


Related Torrents


Comments   (please login to add your comment!)


Home - Browse Torrents

Made with love by an Extratorrent Fan!