Hackers Ningun Sistema Es Segu.. BluRay MicroHD | Truecaller cheat | Politik, Umwelt Gesellschaft
extratorrent - A Fan Made Alternative Login   |   Register
Important Information
Registrations are open now
-------------------------------------

Please click here to register with Extratorrent2 to recieve latest updates, add bookmarks and to post comments.

Friends
Friends

1) ProxyFix

Extratorrent2 > Categories > Movies > Ballerina 2016 Movies DVDRip x264 with Sample ☻rDX☻ torrent


Browse Movies torrents

Ballerina 2016 Movies DVDRip x264 with Sample ☻rDX☻ torrent


Leap! (2016)
Name: Leap!
Released Year: 2016
Runtime: 89 mins
Gener: Animation, Adventure, Com
Director: Eric Summer|Éric Warin
Country: Canada, France
IMDB Rating: 6.8/10
Plot: An orphan girl dreams of becoming a ballerina and flees her rural Brittany for Paris, where she passes for someone else and accedes to the position of pupil at the Grand Opera house.

Download torrent: Download Ballerina 2016 Movies DVDRip x264 with Sample ☻rDX☻ torrent Magnet link Bookmark Torrent: Ballerina 2016 Movies DVDRip x264 with Sample ☻rDX☻   Ballerina 2016 Movies DVDRip x264 with Sample ☻rDX☻ torrent
Info hash: 380A89394BDF797958918D899CF5F5B09D62F29D
Category: Categories > Movies
Trackers:
View all torrent trackers >
Health:
 seeds: 9 ,  leechers: 5 |  Update >
Torrent language: English English
Total Size: 767.4 MB
Files List:
2    View torrent files >
Uploader:
nehalpuja
Torrent added: November 29, 2017, 4:46 pm
IMDB: http://www.imdb.com/title/tt2261287
Users rating: ---, not rated. please login to rate.

Download Ballerina 2016 Movies DVDRip x264 with Sample ☻rDX☻ torrent



Torrent Description

Ballerina 2016 Movies DVDRip x264 with Sample ☻rDX☻
===============================================================================================

SCREEN SHOTS:



or

http://postimage.co.nr/2017/12/a/plan/1.html

File size : 759 MiB
Duration : 1 h 29 min
Overall bit rate : 1 190 kb/s
Movie name : Ballerina 2016 Movies DVDRip x264 ☻rDX☻

Video
ID : 2
Format : AVC
Format/Info : Advanced Video Codec
Format profile :
Format settings, CABAC : Yes
Format settings, ReFrames : 4 frames
Codec ID : V_MPEG4/ISO/AVC
Duration : 1 h 29 min
Bit rate : 718 kb/s
Width : 720 pixels
Height : 308 pixels
Display aspect ratio : 2.35:1
Frame rate mode : Constant
Frame rate : 23.976 (24000/1001) FPS
Color space : YUV
Chroma subsampling : 4:2:0
Bit depth : 8 bits
Scan type : Progressive
Bits/(Pixel*Frame) : 0.135
Stream size : 458 MiB (60%)
Title : ☻rDX☻
Writing library : x264

Audio
ID : 1
Format : AC-3
Format/Info : Audio Coding 3
Mode extension : CM (complete main)
Format settings, Endianness : Big
Codec ID : A_AC3
Duration : 1 h 29 min
Bit rate mode : Constant
Bit rate : 448 kb/s
Channel(s) : 6 channels
Channel positions : Front: L C R, Side: L R, LFE
Sampling rate : 48.0 kHz
Frame rate : 31.250 FPS (1536 spf)
Bit depth : 16 bits
Compression mode : Lossy
Stream size : 286 MiB (38%)
Title : ☻rDX☻
Language : English
Default : Yes
Forced : No



IMDB : http://www.imdb.com/title/tt2261287


Download Ballerina 2016 Movies DVDRip x264 with Sample ☻rDX☻ torrent


Related Torrents


Comments   (please login to add your comment!)


Home - Browse Torrents

Made with love by an Extratorrent Fan!