Crazy Rich Asians | Older Entries | gran bretagna249
extratorrent - A Fan Made Alternative Login   |   Register
Important Information
Registrations are open now
-------------------------------------

Please click here to register with Extratorrent2 to recieve latest updates, add bookmarks and to post comments.

Friends
Friends

1) ProxyFix

Extratorrent2 > Categories > Movies > Summer of 84 2018 1080p WEB-DL DD 5.1 x264 [MW] torrent


Browse Movies torrents

Summer of 84 2018 1080p WEB-DL DD 5.1 x264 [MW] torrent


Download torrent: Download Summer of 84 2018 1080p WEB-DL DD 5.1 x264 [MW] torrent Magnet link Bookmark Torrent: Summer of 84 2018 1080p WEB-DL DD 5.1 x264 [MW]   Summer of 84 2018 1080p WEB-DL DD 5.1 x264 [MW] torrent
Info hash: E34C30730C7BCB19F46E7B08AD52CF6DD9000F37
Category: Categories > Movies
Trackers:
View all torrent trackers >
Health:
 seeds: 12 ,  leechers: 3 |  Update >
Torrent language: English English
Total Size: 2.2 GB
Files List:
1    View torrent files >
Uploader:
moviezworldz
Torrent added: September 2, 2018, 5:20 pm
Tags: Drama, Horror, Mystery
Users rating: ---, not rated. please login to rate.

Download Summer of 84 2018 1080p WEB-DL DD 5.1 x264 [MW] torrent



Torrent Description





General
Format : Matroska
Format version : Version 4 / Version 2
File size : 2.17 GiB
Duration : 1 h 45 min
Overall bit rate : 2 940 kb/s

Video
ID : 1
Format : AVC
Format/Info : Advanced Video Codec
Format profile :
Format settings : CABAC / 4 Ref Frames
Format settings, CABAC : Yes
Format settings, RefFrames : 4 frames
Codec ID : V_MPEG4/ISO/AVC
Duration : 1 h 45 min
Bit rate : 2 600 kb/s
Width : 1 920 pixels
Height : 804 pixels
Display aspect ratio : 2.40:1
Frame rate mode : Constant
Frame rate : 23.976 (24000/1001) FPS
Color space : YUV
Chroma subsampling : 4:2:0
Bit depth : 8 bits
Scan type : Progressive
Bits/(Pixel*Frame) : 0.070
Stream size : 1.88 GiB (87%)
Writing library : x264 core 155 r2901 7d0ff22
Default : Yes
Forced : No

Audio
ID : 2
Format : AC-3
Format/Info : Audio Coding 3
Codec ID : A_AC3
Duration : 1 h 45 min
Bit rate mode : Constant
Bit rate : 384 kb/s
Channel(s) : 6 channels
Channel positions : Front: L C R, Side: L R, LFE
Sampling rate : 48.0 kHz
Frame rate : 31.250 FPS (1536 SPF)
Bit depth : 16 bits
Compression mode : Lossy
Stream size : 290 MiB (13%)
Language : English
Service kind : Complete Main
Default : Yes
Forced : No

Menu
00:00:00.000 : en:1
00:12:30.959 : en:2
00:24:23.003 : en:3
00:37:17.986 : en:4
00:45:56.003 : en:5
00:57:25.984 : en:6
01:06:18.016 : en:7
01:17:51.000 : en:8
01:26:43.031 : en:9
01:41:03.975 : en:10


Click To Enlarge Image









Download Summer of 84 2018 1080p WEB-DL DD 5.1 x264 [MW] torrent


Related Torrents


Comments   (please login to add your comment!)


Home - Browse Torrents

Made with love by an Extratorrent Fan!