Sam Elliott | RapidShare | Der kleine Maulwurf
extratorrent - A Fan Made Alternative Login   |   Register
Important Information
Registrations are open now
-------------------------------------

Please click here to register with Extratorrent2 to recieve latest updates, add bookmarks and to post comments.

Friends
Friends

1) ProxyFix

Extratorrent2 > Categories > Movies > 18+ What Keeps You Alive 2018 Movies 720p HDRip x265 5.1 ESubs with Sample ☻rDX☻ torrent


Browse Movies torrents

18+ What Keeps You Alive 2018 Movies 720p HDRip x265 5.1 ESubs with Sample ☻rDX☻ torrent


Download torrent: Download 18+ What Keeps You Alive 2018 Movies 720p HDRip x265 5.1 ESubs with Sample ☻rDX☻ torrent Magnet link Bookmark Torrent: 18+ What Keeps You Alive 2018 Movies 720p HDRip x265 5.1 ESubs with Sample ☻rDX☻   18+ What Keeps You Alive 2018 Movies 720p HDRip x265 5.1 ESubs with Sample ☻rDX☻ torrent
Info hash: 3A55D48ED894FB4D7C884E07B3BDAF6E4AA12D48
Category: Categories > Movies
Trackers:
View all torrent trackers >
Health:
 seeds: 27 ,  leechers: 17 |  Update >
Torrent language: English English
Total Size: 916.8 MB
Files List:
2    View torrent files >
Uploader:
nehalpuja
Torrent added: September 2, 2018, 5:18 pm
IMDB: http://www.imdb.com/title/tt7073710
Users rating: ---, not rated. please login to rate.

Download 18+ What Keeps You Alive 2018 Movies 720p HDRip x265 5.1 ESubs with Sample ☻rDX☻ torrent



Torrent Description

18+ What Keeps You Alive 2018 Movies 720p HDRip x265 5.1 ESubs with Sample ☻rDX☻
===============================================================================================

SCREEN SHOTS:



or

http://iphonehosting.eu/2018/8/a/levisjeans/1.html

File size : 907 MiB
Duration : 1 h 39 min
Overall bit rate : 1 278 kb/s
Movie name : 18+ What Keeps You Alive 2018 Movies 720p HDRip x265 5.1 ESubs ☻rDX☻

Video
ID : 2
Format : HEVC
Format/Info : High Efficiency Video Coding
Format profile : @Main
Codec ID : V_MPEGH/ISO/HEVC
Duration : 1 h 39 min
Bit rate : 869 kb/s
Width : 1 280 pixels
Height : 536 pixels
Display aspect ratio : 2.40:1
Frame rate mode : Constant
Frame rate : 23.976 (24000/1001) FPS
Color space : YUV
Chroma subsampling : 4:2:0
Bit depth : 8 bits
Bits/(Pixel*Frame) : 0.053
Stream size : 617 MiB (68%)
Title : ☻rDX☻
Default : Yes
Forced : No

Audio
ID : 1
Format : AC-3
Format/Info : Audio Coding 3
Mode extension : CM (complete main)
Format settings, Endianness : Big
Codec ID : A_AC3
Duration : 1 h 39 min
Bit rate mode : Constant
Bit rate : 384 kb/s
Channel(s) : 6 channels
Channel positions : Front: L C R, Side: L R, LFE
Sampling rate : 48.0 kHz
Frame rate : 31.250 FPS (1536 spf)
Bit depth : 16 bits
Compression mode : Lossy
Stream size : 273 MiB (30%)
Title : ☻rDX☻
Default : Yes
Forced : No

Text
ID : 3
Format : UTF-8
Codec ID : S_TEXT/UTF8
Codec ID/Info : UTF-8 Plain Text
Title : ☻rDX☻
Language : English
Default : Yes
Forced : No



IMDB : http://www.imdb.com/title/tt7073710


Download 18+ What Keeps You Alive 2018 Movies 720p HDRip x265 5.1 ESubs with Sample ☻rDX☻ torrent


Related Torrents


Comments   (please login to add your comment!)

saab bahadar punjabi 2017     join die     suvi     beauty senior     mission impossible fallout     june 2015     gyn     din     marshal     podcast     tsplayground natalie mars     1080p video song     asa akira onlyfans     428     veere di wedding     eng hindi 1962     ant man and the wasp     commando dual audio     032215     baby driver video     reo     czech wife swap 9 part 2     929     arrow     


Home - Browse Torrents

Made with love by an Extratorrent Fan!